<?xml version="1.0" standalone="no"?>
<!DOCTYPE svg PUBLIC "-//W3C//DTD SVG 1.1//EN" "http://www.w3.org/Graphics/SVG/1.1/DTD/svg11.dtd" >
<svg xmlns="http://www.w3.org/2000/svg">
<metadata>Generated by IcoMoon</metadata>
<defs>
<font id="icomoon" horiz-adv-x="1024">
<font-face units-per-em="1024" ascent="960" descent="-64" />
<missing-glyph horiz-adv-x="1024" />
<glyph unicode="&#x20;" horiz-adv-x="512" d="" />
<glyph unicode="&#xe900;" glyph-name="briefcase" d="M371.2 908.8c-49.023 0-89.601-40.577-89.601-89.6v-64h-192c-49.408 0-89.6-40.192-89.6-89.6v-319.999h435.199v12.798c0 21.249 17.151 38.4 38.4 38.4h76.8c21.249 0 38.4-17.151 38.4-38.4v-12.798h435.201v319.999c0 49.408-40.194 89.6-89.601 89.6h-192v64c0 49.023-40.578 89.6-89.601 89.6zM371.2 832h281.598c7.554 0 12.801-5.247 12.801-12.8v-64h-307.2v64c0 7.553 5.247 12.8 12.801 12.8zM0 268.801v-192c0-49.41 40.192-89.601 89.6-89.601h844.799c49.407 0 89.601 40.191 89.601 89.601v192h-435.201v-12.801c0-21.249-17.151-38.4-38.4-38.4h-76.8c-21.249 0-38.4 17.151-38.4 38.4v12.801z" />
<glyph unicode="&#xe901;" glyph-name="btc" d="M512.002 960.001c-282.754 0-512.002-229.248-512.002-512.001s229.248-512.001 512.002-512.001c282.752 0 511.998 229.248 511.998 512.001s-229.245 512.001-511.998 512.001zM469.336 746.667h85.333v-85.666c79.36-1.835 126.748-41.658 126.748-106.085 0-45.227-33.39-84.599-77.166-91.084v-5.333c56.491-4.139 97.585-46.751 97.585-101.748 0-74.667-56.329-121.874-147.167-122.002v-85.416h-85.333v85.333h-106.667v426.667h106.667zM452.001 593v-108.498h67.084c48.213 0 74.499 19.779 74.499 54.083 0 34.005-24.503 54.415-67.084 54.415zM452.001 424.168v-121.167h79.5c51.456 0 79.25 21.608 79.25 61.501 0 39.040-28.727 59.666-81.335 59.666z" />
<glyph unicode="&#xe902;" glyph-name="calendar" d="M930.909 960h-837.819c-51.433 0-93.091-41.658-93.091-93.091v-837.819c0-51.433 41.658-93.091 93.091-93.091h837.819c51.433 0 93.091 41.658 93.091 93.091v837.819c0 51.433-41.658 93.091-93.091 93.091zM139.636 75.636c-25.693 0-46.545 20.852-46.545 46.545s20.852 46.545 46.545 46.545c25.693 0 46.545-20.852 46.545-46.545s-20.852-46.545-46.545-46.545zM139.636 261.817c-25.693 0-46.545 20.852-46.545 46.545s20.852 46.545 46.545 46.545c25.693 0 46.545-20.852 46.545-46.545s-20.852-46.545-46.545-46.545zM325.817 75.636c-25.693 0-46.545 20.852-46.545 46.545s20.852 46.545 46.545 46.545c25.693 0 46.545-20.852 46.545-46.545s-20.852-46.545-46.545-46.545zM325.817 261.817c-25.693 0-46.545 20.852-46.545 46.545s20.852 46.545 46.545 46.545c25.693 0 46.545-20.852 46.545-46.545s-20.852-46.545-46.545-46.545zM325.817 448.001c-25.693 0-46.545 20.852-46.545 46.545s20.852 46.545 46.545 46.545c25.693 0 46.545-20.852 46.545-46.545s-20.852-46.545-46.545-46.545zM511.999 75.636c-25.693 0-46.545 20.852-46.545 46.545s20.852 46.545 46.545 46.545c25.693 0 46.545-20.852 46.545-46.545s-20.852-46.545-46.545-46.545zM511.999 261.817c-25.693 0-46.545 20.852-46.545 46.545s20.852 46.545 46.545 46.545c25.693 0 46.545-20.852 46.545-46.545s-20.852-46.545-46.545-46.545zM511.999 448.001c-25.693 0-46.545 20.852-46.545 46.545s20.852 46.545 46.545 46.545c25.693 0 46.545-20.852 46.545-46.545s-20.852-46.545-46.545-46.545zM698.183 75.636c-25.693 0-46.545 20.852-46.545 46.545s20.852 46.545 46.545 46.545c25.693 0 46.545-20.852 46.545-46.545s-20.852-46.545-46.545-46.545zM698.183 261.817c-25.693 0-46.545 20.852-46.545 46.545s20.852 46.545 46.545 46.545c25.693 0 46.545-20.852 46.545-46.545s-20.852-46.545-46.545-46.545zM651.637 494.547c0 25.693 20.852 46.545 46.545 46.545s46.545-20.852 46.545-46.545c0-25.693-20.852-46.545-46.545-46.545s-46.545 20.852-46.545 46.545zM884.364 261.817c-25.693 0-46.545 20.852-46.545 46.545s20.852 46.545 46.545 46.545c25.693 0 46.545-20.852 46.545-46.545s-20.852-46.545-46.545-46.545zM884.364 448.001c-25.693 0-46.545 20.852-46.545 46.545s20.852 46.545 46.545 46.545c25.693 0 46.545-20.852 46.545-46.545s-20.852-46.545-46.545-46.545zM930.909 680.728h-837.819v186.181h837.819z" />
<glyph unicode="&#xe903;" glyph-name="camera" d="M403.155 841.846c-29.855 0-57.113-16.836-70.464-43.539l-15.537-31.077c-13.351-26.663-40.648-43.539-70.461-43.539h-167.923c-43.52 0-78.769-35.249-78.769-78.769v-512c0-43.519 35.249-78.77 78.769-78.77h866.461c43.522 0 78.77 35.251 78.77 78.77v512c0 43.52-35.248 78.769-78.77 78.769h-167.923c-29.852 0-57.11 16.836-70.461 43.539l-15.537 31.077c-13.351 26.664-40.648 43.539-70.461 43.539zM157.538 802.462c-21.74 0-39.385-17.644-39.385-39.385h118.154c0 21.74-17.645 39.385-39.385 39.385zM512.001 684.308c152.023 0 275.691-123.668 275.691-275.693 0-152.023-123.669-275.691-275.691-275.691-152.026 0-275.693 123.669-275.693 275.691 0 152.025 123.668 275.693 275.693 275.693zM866.463 644.924c21.74 0 39.384-17.644 39.384-39.385s-17.643-39.384-39.384-39.384c-21.74 0-39.387 17.644-39.387 39.384s17.646 39.385 39.387 39.385zM512.001 605.539c-52.23 0-102.315-20.747-139.247-57.676-36.929-36.932-57.677-87.020-57.677-139.247s20.748-102.315 57.677-139.244c36.932-36.932 87.017-57.677 139.247-57.677 52.227 0 102.315 20.745 139.244 57.677 36.929 36.929 57.677 87.017 57.677 139.244s-20.748 102.315-57.677 139.247c-36.929 36.929-87.017 57.676-139.244 57.676z" />
<glyph unicode="&#xe904;" glyph-name="check-alt" d="M930.945 621.525c29.44 146.006-99.415 274.859-245.42 245.419-82.432 124.075-264.661 124.075-347.049 0-146.007 29.44-274.86-99.414-245.42-245.419-124.075-82.432-124.075-264.661 0-347.052-29.44-146.005 99.413-274.857 245.42-245.417 82.432-124.076 264.661-124.076 347.049 0 146.005-29.44 274.86 99.412 245.42 245.417 124.073 82.432 124.073 264.62 0 347.052zM798.166 588.501l-322.56-322.56c-8.020-8.020-18.857-12.5-30.164-12.5s-22.188 4.48-30.164 12.5l-147.33 147.328c-16.682 16.684-16.682 43.648 0 60.332 16.682 16.681 43.649 16.681 60.33 0l117.164-117.164 292.396 292.396c16.681 16.681 43.648 16.681 60.329 0 16.684-16.684 16.684-43.648 0-60.332z" />
<glyph unicode="&#xe905;" glyph-name="check-circle" d="M512 960c-282.752 0-512-229.248-512-512s229.248-512 512-512c282.752 0 512 229.248 512 512s-229.248 512-512 512zM798.165 545.835l-322.56-322.56c-8.021-8.021-18.859-12.501-30.165-12.501s-22.187 4.48-30.165 12.501l-147.328 147.328c-16.683 16.683-16.683 43.648 0 60.331s43.648 16.683 60.331 0l117.163-117.163 292.395 292.395c16.683 16.683 43.648 16.683 60.331 0s16.683-43.648 0-60.331z" />
<glyph unicode="&#xe906;" glyph-name="check-task" d="M930.909 960.001h-837.818c-51.433 0-93.091-41.658-93.091-93.091v-837.821c0-51.433 41.658-93.091 93.091-93.091h837.818c51.433 0 93.091 41.658 93.091 93.091v837.821c0 51.433-41.658 93.091-93.091 93.091zM731.090 415.094l-258.793-258.796c-8.75-8.751-20.573-13.638-32.908-13.638s-24.204 4.887-32.908 13.638l-114.175 114.176c-18.2 18.199-18.2 47.616 0 65.815s47.616 18.199 65.815 0l81.268-81.268 225.886 225.888c18.199 18.199 47.616 18.199 65.815 0s18.199-47.616 0-65.815zM930.909 680.729h-837.818v186.182h837.818z" />
<glyph unicode="&#xe907;" glyph-name="chevron-down" d="M940.772 714.101l-428.77-428.77-428.77 428.77c-19.042 19.042-49.909 19.042-68.95 0s-19.042-49.909 0-68.95l463.245-463.246c9.533-9.533 21.992-14.287 34.475-14.287s24.942 4.754 34.475 14.287l463.245 463.246c19.037 19.042 19.037 49.909 0 68.95-19.047 19.042-49.914 19.042-68.95 0z" />
<glyph unicode="&#xe908;" glyph-name="chevron-left" d="M778.101 876.772l-428.77-428.77 428.77-428.77c19.042-19.042 19.042-49.909 0-68.95s-49.909-19.042-68.95 0l-463.246 463.245c-9.533 9.533-14.287 21.992-14.287 34.475s4.754 24.942 14.287 34.475l463.246 463.245c19.042 19.037 49.909 19.037 68.95 0 19.042-19.047 19.042-49.914 0-68.95z" />
<glyph unicode="&#xe909;" glyph-name="chevron-right" d="M245.899 876.772l428.77-428.77-428.77-428.77c-19.042-19.042-19.042-49.909 0-68.95s49.909-19.042 68.95 0l463.246 463.245c9.533 9.533 14.287 21.992 14.287 34.475s-4.754 24.942-14.287 34.475l-463.246 463.245c-19.042 19.037-49.909 19.037-68.95 0-19.042-19.047-19.042-49.914 0-68.95z" />
<glyph unicode="&#xe90a;" glyph-name="chevron-up" d="M940.772 181.899l-428.77 428.77-428.77-428.77c-19.042-19.042-49.909-19.042-68.95 0s-19.042 49.909 0 68.95l463.245 463.246c9.533 9.533 21.992 14.287 34.475 14.287s24.942-4.754 34.475-14.287l463.245-463.246c19.037-19.042 19.037-49.909 0-68.95-19.047-19.042-49.914-19.042-68.95 0z" />
<glyph unicode="&#xe90b;" glyph-name="clock-task" d="M93.091 959.999c-50.877 0-93.091-42.214-93.091-93.091v-837.818c0-51.432 41.658-93.089 93.091-93.089h837.818c51.432 0 93.092 41.657 93.092 93.089v837.818c0 50.877-42.214 93.091-93.092 93.091zM93.091 866.908h837.818v-93.091h-325.817c0-51.433-41.66-93.091-93.092-93.091s-93.092 41.657-93.092 93.091h-325.817zM512 587.635c154.252 0 279.272-125.020 279.272-279.272 0-154.25-125.020-279.272-279.272-279.272s-279.272 125.022-279.272 279.272c0 154.252 125.020 279.272 279.272 279.272zM511.273 495.181c-12.329-0.192-24.079-5.269-32.668-14.114s-13.32-20.738-13.15-33.068v-120.362l-56.182-56.182c-4.468-4.289-8.033-9.428-10.492-15.111-2.457-5.686-3.755-11.801-3.816-17.996-0.064-6.192 1.108-12.334 3.449-18.068s5.801-10.942 10.18-15.321c4.379-4.379 9.589-7.841 15.323-10.18 5.732-2.341 11.876-3.515 18.068-3.452s12.31 1.361 17.996 3.818c5.684 2.457 10.82 6.022 15.109 10.49l83.454 83.454v158.908c0.085 6.227-1.080 12.408-3.425 18.179-2.348 5.769-5.828 11.007-10.235 15.406-4.409 4.401-9.655 7.87-15.428 10.207-5.773 2.335-11.956 3.489-18.183 3.391z" />
<glyph unicode="&#xe90c;" glyph-name="clock1" d="M512 960c-282.752 0-512-229.248-512-511.999s229.248-512.001 512-512.001 512 229.248 512 512.001c0 282.751-229.248 511.999-512 511.999zM554.667 405.334h-341.547c-23.467 0-42.453 18.987-42.453 42.453v0.466c0 23.424 18.987 42.411 42.453 42.411h256.213v341.549c0 23.467 18.987 42.453 42.453 42.453h0.471c23.424 0 42.411-18.987 42.411-42.453z" />
<glyph unicode="&#xe90d;" glyph-name="clock2" d="M512 959.998c-282.26 0-512-229.74-512-511.999 0-282.261 229.74-512 512-512s512 229.739 512 512c0 176.627-89.691 332.793-226.165 424.833l48.917 62.75-206.752 7.5 59.669-196.417 45.333 58.25c105.232-68.796 178.272-182.376 191.333-314.333-10.896-0.596-21.147-5.342-28.645-13.262-7.504-7.92-11.685-18.412-11.691-29.32 0.011-10.949 4.224-21.477 11.781-29.403 7.552-7.925 17.867-12.645 28.8-13.184-19.92-202-179.995-362.075-382-382-0.534 10.939-5.253 21.253-13.179 28.805s-18.453 11.771-29.403 11.781c-10.949-0.011-21.477-4.229-29.403-11.781s-12.645-17.867-13.18-28.805c-202.001 19.925-362.079 180-382 382 10.937 0.539 21.249 5.259 28.803 13.184s11.772 18.453 11.78 29.403c-0.008 10.949-4.226 21.476-11.78 29.403s-17.866 12.645-28.803 13.18c21.303 216.021 202.836 384.084 424.584 384.084 5.653-0.080 11.269 0.964 16.512 3.073 5.248 2.108 10.021 5.238 14.048 9.209s7.227 8.7 9.408 13.917c2.181 5.216 3.306 10.814 3.306 16.469s-1.125 11.252-3.306 16.469c-2.181 5.216-5.381 9.947-9.408 13.917s-8.8 7.1-14.048 9.208c-5.243 2.108-10.859 3.153-16.512 3.073zM511.333 747.247c-11.301-0.177-22.071-4.83-29.945-12.938s-12.21-19.010-12.055-30.311v-234.667l-153.583-115.167c-9.061-6.784-15.057-16.891-16.666-28.096s1.298-22.592 8.083-31.653c6.785-9.061 16.892-15.056 28.097-16.667s22.591 1.296 31.653 8.085l170.667 128c5.307 3.974 9.611 9.131 12.576 15.061s4.512 12.475 4.507 19.104v256c0.080 5.708-0.992 11.374-3.141 16.662s-5.339 10.091-9.381 14.124c-4.043 4.033-8.848 7.214-14.144 9.355-5.291 2.141-10.96 3.198-16.667 3.109z" />
<glyph unicode="&#xe90e;" glyph-name="display" d="M85.333 917.334c-47.147 0-85.333-38.187-85.333-85.333v-597.336c0-47.147 38.187-85.333 85.333-85.333h330.667l-21.333-85.333h-53.333c-5.654 0.082-11.267-0.96-16.514-3.072-5.247-2.107-10.022-5.237-14.049-9.205-4.027-3.973-7.224-8.704-9.406-13.92s-3.306-10.811-3.306-16.469c0-5.653 1.124-11.248 3.306-16.464s5.379-9.947 9.406-13.92c4.026-3.968 8.802-7.099 14.049-9.205 5.246-2.112 10.86-3.152 16.514-3.072h341.334c5.653-0.082 11.264 0.96 16.512 3.072 5.248 2.107 10.021 5.237 14.048 9.205 4.027 3.973 7.227 8.704 9.408 13.92s3.306 10.811 3.306 16.464c0 5.659-1.125 11.253-3.306 16.469s-5.381 9.947-9.408 13.92c-4.027 3.968-8.8 7.099-14.048 9.205-5.248 2.112-10.859 3.152-16.512 3.072h-53.333l-21.333 85.333h330.666c47.147 0 85.333 38.187 85.333 85.333v597.336c0 47.147-38.187 85.333-85.333 85.333zM85.333 832.001h853.333v-512.002h-853.333zM512 277.332c23.552 0 42.667-19.115 42.667-42.667s-19.115-42.667-42.667-42.667c-23.553 0-42.667 19.115-42.667 42.667s19.115 42.667 42.667 42.667z" />
<glyph unicode="&#xe90f;" glyph-name="doc" d="M894.305 692.46l-255.998 256c-7.405 7.404-17.41 11.54-27.846 11.54h-413.538c-43.52 0-78.769-35.249-78.769-78.769v-866.461c0-43.519 35.249-78.77 78.769-78.77h630.152c43.522 0 78.77 35.251 78.77 78.77v649.845c0 10.436-4.135 20.441-11.541 27.845zM630.155 211.694h-315.078c-21.74 0-39.384 17.643-39.384 39.384s17.644 39.384 39.384 39.384h315.078c21.74 0 39.384-17.643 39.384-39.384s-17.643-39.384-39.384-39.384zM708.922 369.231h-393.845c-21.74 0-39.384 17.643-39.384 39.384s17.644 39.387 39.384 39.387h393.845c21.74 0 39.387-17.646 39.387-39.387s-17.646-39.384-39.387-39.384zM630.155 644.922c-21.74 0-39.387 17.646-39.387 39.387v200.703l240.088-240.090z" />
<glyph unicode="&#xe910;" glyph-name="edit" d="M134.739 960c-39.702 0-71.86-32.731-71.86-73.143v-804.569c0-40.413 32.157-73.147 71.86-73.147h563.090l-201.616 205.144c-10.707 10.9-17.733 24.998-20.14 40.216l-17.052 108.859c-3.629 23.15 3.864 46.607 20.14 63.212 13.581 13.787 31.908 21.428 50.807 21.428 3.773 0 7.596-0.307 11.369-0.928l106.878-17.428c14.945-2.452 28.731-9.6 39.44-20.5l93.82-95.43v372.001c0 9.691-3.767 18.982-10.526 25.857l-233.543 237.714c-6.755 6.875-15.882 10.714-25.403 10.714zM494.037 890.357l219.017-222.929h-183.087c-19.833 0-35.929 16.384-35.929 36.572zM529.967 374.857l17.053-108.859 236.001-240.143 89.826 91.43-236.005 240.143zM923.653 65.573l-89.826-91.43 18.879-19.216c24.792-25.234 65.029-25.234 89.821 0s24.792 66.196 0 91.43z" />
<glyph unicode="&#xe911;" glyph-name="eur-bag" d="M512.002 960c-34.852 0-65.837-15.386-87.461-39.385h-109.385c-27.845 0-46.973-28.163-36.615-54l36.538-103.539h393.843l36.542 103.539c10.358 25.836-8.77 54-36.615 54h-109.386c-21.625 23.999-52.609 39.385-87.461 39.385zM315.079 684.307c0 0-275.692-236.308-275.692-512 0-157.538 118.154-236.308 196.923-236.308h551.382c78.769 0 196.923 78.769 196.923 236.308 0 275.692-275.692 512-275.692 512zM578.002 526.769c19.259 0 39.34-1.867 51.077-4.231v-67.616c-12.839 2.087-28.702 2.846-49.615 2.846-94.72 0-125.458-51.042-135.461-88.615h146.769v-39.386h-151.616c-0.039-3.111-0.431-19.338 4.846-39.385h146.769v-39.385h-128.616c18.944-26.388 53.375-49.231 116.154-49.231 21.189 0 40.425 0.84 51.847 2.691v-68.923c-12.288-1.339-29.862-2.612-52.154-2.612-137.374 0-190.406 63.252-210.846 118.154h-52.077v39.384h41.923c-3.269 21.543-2.347 37.297-2.308 39.385h-39.615v39.384h42.308c9.334 57.423 49.686 157.538 220.616 157.538z" />
<glyph unicode="&#xe912;" glyph-name="eur" d="M512.002 960.001c-282.754 0-512.002-229.248-512.002-512.001s229.248-512.001 512.002-512.001c282.752 0 511.998 229.248 511.998 512.001s-229.245 512.001-511.998 512.001zM640.002 237.525c-13.312-1.451-32.341-2.859-56.491-2.859-148.822 0-206.251 68.523-228.395 128h-56.45v42.667h45.442c-3.541 23.339-2.603 40.405-2.56 42.667h-42.882v42.667h45.868c10.112 62.208 53.803 170.667 238.976 170.667 20.864 0 42.581-2.005 55.296-4.565v-73.259c-13.909 2.261-31.104 3.115-53.76 3.115-102.613 0-135.894-55.296-146.731-96h159.019v-42.667h-164.267c-0.042-3.371-0.469-20.949 5.248-42.667h159.019v-42.667h-139.35c20.523-28.587 57.813-53.333 125.824-53.333 22.955 0 43.819 0.853 56.192 2.859z" />
<glyph unicode="&#xe913;" glyph-name="facebook" d="M930.915 960.001h-837.824c-51.433 0-93.091-41.658-93.091-93.091v-837.82c0-51.433 41.658-93.091 93.091-93.091h465.456v418.91h-139.637v139.636h139.637v74.985c0 141.964 69.17 204.289 187.163 204.289 56.506 0 86.383-4.189 100.538-6.097v-133.539h-80.477c-50.083 0-67.584-26.438-67.584-79.965v-59.671h146.799l-19.916-139.636h-126.883v-418.91h232.728c51.433 0 93.085 41.658 93.085 93.091v837.82c0 51.433-41.699 93.091-93.085 93.091z" />
<glyph unicode="&#xe914;" glyph-name="gbp" d="M512 960c-282.752 0-512-229.248-512-512s229.248-512 512-512c282.752 0 512 229.248 512 512s-229.248 512-512 512zM652.672 234.667h-324.053v69.205c51.328 7.211 86.485 44.971 87.339 93.397 0 6.912-1.451 13.568-3.157 19.584h-82.987v61.397h64.555c-10.069 24.491-17.024 45.824-17.024 70.059 0 71.509 59.093 113.024 160.853 113.024 38.613 0 68.053-2.901 95.147-9.515v-70.059c-27.691 6.613-53.035 9.515-82.731 9.515-53.035 0-85.888-22.485-85.888-58.795 0-19.584 5.205-36.907 12.117-54.187h120.235v-61.397h-102.059c1.749-5.76 2.901-12.117 2.901-18.731 1.749-34.901-16.725-67.755-47.573-83.883v-5.461h202.368v-74.155z" />
<glyph unicode="&#xe915;" glyph-name="graph" d="M930.909 960c-24.689 0-48.367-9.808-65.825-27.266s-27.266-41.136-27.266-65.825c0.003-5.302 0.459-10.594 1.363-15.818l-155.545-129.636c-10.243 3.802-21.075 5.772-32 5.818-18.236-0.018-36.066-5.392-51.273-15.454l-135.181 67.636c-1.436 23.653-11.836 45.868-29.081 62.118-17.248 16.25-40.042 25.311-63.737 25.337-24.689 0-48.367-9.808-65.825-27.266s-27.266-41.136-27.266-65.825c0.026-2.002 0.117-4.003 0.273-6l-145.273-96.818c-12.799 6.36-26.89 9.689-41.182 9.727-24.689 0-48.367-9.808-65.825-27.266s-27.266-41.136-27.266-65.825c0-24.689 9.808-48.367 27.266-65.825s41.136-27.266 65.825-27.266c24.689 0 48.367 9.808 65.825 27.266s27.266 41.136 27.266 65.825c-0.028 1.972-0.119 3.943-0.273 5.908l145.272 96.91c12.8-6.361 26.89-9.689 41.183-9.727 18.236 0.019 36.063 5.392 51.273 15.455l135.181-67.635c1.436-23.655 11.836-45.867 29.081-62.118 17.248-16.251 40.042-25.311 63.737-25.337 24.689 0 48.367 9.808 65.825 27.266s27.266 41.136 27.266 65.825c-0.003 5.303-0.459 10.592-1.363 15.818l155.545 129.636c10.243-3.802 21.075-5.772 32-5.818 24.689 0 48.367 9.808 65.825 27.266s27.266 41.136 27.266 65.825c0 24.689-9.808 48.367-27.266 65.825s-41.136 27.266-65.825 27.266zM884.364 587.636c-25.693 0-46.545-20.852-46.545-46.545v-605.091h186.182v605.091c0 25.693-20.852 46.545-46.545 46.545zM325.818 494.546c-25.693 0-46.545-20.852-46.545-46.545v-512h186.182v512c0 25.693-20.852 46.545-46.545 46.545zM605.091 401.455c-25.693 0-46.545-20.852-46.545-46.545v-418.909h186.182v418.909c0 25.693-20.852 46.545-46.545 46.545zM46.546 308.364c-25.693 0-46.546-20.852-46.546-46.545v-325.818h186.182v325.818c0 25.693-20.852 46.545-46.545 46.545z" />
<glyph unicode="&#xe916;" glyph-name="horn" d="M983.997 921.158c-10.432-0.163-20.376-4.458-27.643-11.943-7.271-7.485-11.269-17.547-11.126-27.98v-15.923l-787.687-318.843v-196.921l184.075-74.461-13.923-32.92c-25.285-59.667 3.065-129.579 62.691-154.849 0.026 0 0.051 0 0.077 0l93.69-39.689c59.667-25.285 129.653 3.141 154.923 62.769l16 37.769 290.153-117.463v-15.921c-0.074-5.218 0.886-10.402 2.836-15.242 1.945-4.844 4.834-9.25 8.497-12.967 3.668-3.717 8.034-6.671 12.849-8.684s9.979-3.052 15.202-3.052c5.218 0 10.383 1.039 15.197 3.052 4.82 2.014 9.181 4.967 12.849 8.684 3.663 3.717 6.553 8.123 8.497 12.967 1.949 4.839 2.915 10.023 2.841 15.242v866.453c0.070 5.27-0.916 10.5-2.9 15.381-1.989 4.881-4.933 9.315-8.664 13.037-3.727 3.723-8.167 6.659-13.051 8.635s-10.117 2.952-15.384 2.87zM38.773 566.7c-10.432-0.163-20.373-4.458-27.642-11.943s-11.27-17.548-11.127-27.98v-157.537c-0.074-5.218 0.89-10.402 2.836-15.242 1.946-4.844 4.835-9.25 8.5-12.967s8.031-6.671 12.846-8.684c4.815-2.014 9.982-3.052 15.202-3.052s10.387 1.039 15.201 3.052c4.815 2.014 9.182 4.967 12.846 8.684s6.554 8.123 8.5 12.967c1.946 4.839 2.91 10.023 2.837 15.242v157.537c0.072 5.27-0.914 10.499-2.9 15.381s-4.93 9.314-8.66 13.037c-3.73 3.722-8.169 6.659-13.054 8.635s-10.117 2.952-15.386 2.87zM414.615 245.471l167.381-67.765-15.458-36.617c-8.679-20.48-31.173-29.587-51.618-20.923l-93.767 39.694c-20.481 8.679-29.587 31.168-20.923 51.613z" />
<glyph unicode="&#xe917;" glyph-name="ip" d="M512 960c-230.466 0-417.306-186.84-417.306-417.306 0-274.437 271.357-405.846 305.348-436.423 34.712-31.26 63.34-101.173 74.911-140.855 5.615-19.234 21.38-28.96 37.047-29.415 15.63 0.419 31.433 10.143 37.048 29.415 11.569 39.682 40.197 109.633 74.909 140.855 33.992 30.577 305.35 161.986 305.35 436.423 0 230.466-186.839 417.306-417.307 417.306zM322.315 694.441h77.207v-303.497h-77.207zM514.075 694.441h132.929c65.214 0 109.363-42.521 109.363-107.735 0-64.569-46.468-106.771-113.958-106.771h-51.125v-88.991h-77.209zM591.284 635.165v-96.991h34.973c32.815 0 52.163 16.859 52.163 48.384-0.038 31.981-19.243 48.607-51.869 48.607z" />
<glyph unicode="&#xe918;" glyph-name="list" d="M43.249 917.055c-5.651 0.080-11.261-0.964-16.504-3.071s-10.016-5.235-14.040-9.203c-4.024-3.967-7.219-8.695-9.4-13.908s-3.304-10.808-3.304-16.459c0-5.651 1.123-11.246 3.304-16.459s5.376-9.941 9.4-13.909c4.024-3.967 8.797-7.096 14.040-9.203s10.854-3.151 16.504-3.071h42.641c5.65-0.080 11.26 0.964 16.504 3.071s10.016 5.235 14.040 9.203c4.024 3.967 7.219 8.695 9.4 13.909s3.304 10.808 3.304 16.459c0 5.651-1.123 11.246-3.304 16.459s-5.376 9.941-9.4 13.908c-4.024 3.968-8.797 7.096-14.040 9.203s-10.854 3.151-16.504 3.071zM256.455 917.055c-5.65 0.080-11.26-0.964-16.504-3.071s-10.016-5.235-14.040-9.203c-4.024-3.967-7.219-8.695-9.4-13.908s-3.304-10.808-3.304-16.459c0-5.651 1.123-11.246 3.304-16.459s5.376-9.941 9.4-13.909c4.024-3.967 8.797-7.096 14.040-9.203s10.854-3.151 16.504-3.071h383.772c5.65-0.080 11.26 0.964 16.505 3.071 5.242 2.107 10.015 5.235 14.038 9.203 4.027 3.967 7.222 8.695 9.402 13.909s3.305 10.808 3.305 16.459c0 5.651-1.124 11.246-3.305 16.459s-5.376 9.941-9.402 13.908c-4.024 3.968-8.796 7.096-14.038 9.203-5.245 2.107-10.855 3.151-16.505 3.071zM810.793 917.055c-11.309 0-22.155-4.493-30.15-12.489-7.998-7.997-12.491-18.843-12.491-30.152s4.493-22.155 12.491-30.152c7.995-7.997 18.841-12.489 30.15-12.489s22.155 4.493 30.154 12.489c7.995 7.997 12.488 18.843 12.488 30.152s-4.493 22.155-12.488 30.152c-7.998 7.997-18.844 12.489-30.154 12.489zM981.359 917.055c-11.309 0-22.155-4.493-30.151-12.489-7.998-7.997-12.491-18.843-12.491-30.152s4.493-22.155 12.491-30.152c7.995-7.997 18.841-12.489 30.151-12.489s22.155 4.493 30.154 12.489c7.995 7.997 12.488 18.843 12.488 30.152s-4.493 22.155-12.488 30.152c-7.998 7.997-18.844 12.489-30.154 12.489zM43.249 746.49c-5.651 0.080-11.261-0.964-16.504-3.071s-10.016-5.235-14.040-9.203c-4.024-3.967-7.219-8.695-9.4-13.908s-3.304-10.808-3.304-16.459c0-5.651 1.123-11.246 3.304-16.459s5.376-9.941 9.4-13.908c4.024-3.967 8.797-7.096 14.040-9.203s10.854-3.151 16.504-3.071h42.641c5.65-0.080 11.26 0.964 16.504 3.071s10.016 5.235 14.040 9.203c4.024 3.967 7.219 8.695 9.4 13.908s3.304 10.808 3.304 16.459c0 5.651-1.123 11.246-3.304 16.459s-5.376 9.941-9.4 13.908c-4.024 3.967-8.797 7.096-14.040 9.203s-10.854 3.151-16.504 3.071zM256.455 746.49c-5.65 0.080-11.26-0.964-16.504-3.071s-10.016-5.235-14.040-9.203c-4.024-3.967-7.219-8.695-9.4-13.908s-3.304-10.808-3.304-16.459c0-5.651 1.123-11.246 3.304-16.459s5.376-9.941 9.4-13.908c4.024-3.967 8.797-7.096 14.040-9.203s10.854-3.151 16.504-3.071h213.207c5.65-0.080 11.26 0.964 16.505 3.071 5.242 2.107 10.015 5.235 14.038 9.203 4.027 3.967 7.222 8.695 9.402 13.908s3.305 10.808 3.305 16.459c0 5.651-1.124 11.246-3.305 16.459s-5.376 9.941-9.402 13.908c-4.024 3.967-8.796 7.096-14.038 9.203-5.245 2.107-10.855 3.151-16.505 3.071zM810.793 746.49c-11.309 0-22.155-4.493-30.15-12.489-7.998-7.997-12.491-18.843-12.491-30.152s4.493-22.155 12.491-30.152c7.995-7.997 18.841-12.489 30.15-12.489s22.155 4.493 30.154 12.489c7.995 7.997 12.488 18.843 12.488 30.152s-4.493 22.155-12.488 30.152c-7.998 7.997-18.844 12.489-30.154 12.489zM981.359 746.49c-11.309 0-22.155-4.493-30.151-12.489-7.998-7.997-12.491-18.843-12.491-30.152s4.493-22.155 12.491-30.152c7.995-7.997 18.841-12.489 30.151-12.489s22.155 4.493 30.154 12.489c7.995 7.997 12.488 18.843 12.488 30.152s-4.493 22.155-12.488 30.152c-7.998 7.997-18.844 12.489-30.154 12.489zM43.249 575.924c-5.651 0.078-11.261-0.963-16.504-3.070s-10.016-5.236-14.040-9.204c-4.024-3.966-7.219-8.696-9.4-13.907-2.181-5.214-3.304-10.81-3.304-16.46s1.123-11.245 3.304-16.46c2.181-5.211 5.376-9.942 9.4-13.907 4.024-3.969 8.797-7.097 14.040-9.204 5.244-2.105 10.854-3.149 16.504-3.070h42.641c5.65-0.078 11.26 0.966 16.504 3.070 5.243 2.108 10.016 5.236 14.040 9.204 4.024 3.966 7.219 8.696 9.4 13.907 2.181 5.214 3.304 10.81 3.304 16.46s-1.123 11.245-3.304 16.46c-2.181 5.211-5.376 9.942-9.4 13.907-4.024 3.969-8.797 7.097-14.040 9.204s-10.854 3.149-16.504 3.070zM256.455 575.924c-5.65 0.078-11.26-0.963-16.504-3.070s-10.016-5.236-14.040-9.204c-4.024-3.966-7.219-8.696-9.4-13.907-2.181-5.214-3.304-10.81-3.304-16.46s1.123-11.245 3.304-16.46c2.181-5.211 5.376-9.942 9.4-13.907 4.024-3.969 8.797-7.097 14.040-9.204 5.244-2.105 10.854-3.149 16.504-3.070h383.772c5.65-0.078 11.26 0.966 16.505 3.070 5.242 2.108 10.015 5.236 14.038 9.204 4.027 3.966 7.222 8.696 9.402 13.907 2.181 5.214 3.305 10.81 3.305 16.46s-1.124 11.245-3.305 16.46c-2.181 5.211-5.376 9.942-9.402 13.907-4.024 3.969-8.796 7.097-14.038 9.204-5.245 2.108-10.855 3.149-16.505 3.070zM810.793 575.924c-11.309 0-22.155-4.493-30.15-12.488-7.998-7.998-12.491-18.844-12.491-30.154s4.493-22.155 12.491-30.151c7.995-7.998 18.841-12.491 30.15-12.491s22.155 4.493 30.154 12.491c7.995 7.995 12.488 18.841 12.488 30.151s-4.493 22.155-12.488 30.154c-7.998 7.995-18.844 12.488-30.154 12.488zM981.359 575.924c-11.309 0-22.155-4.493-30.151-12.488-7.998-7.998-12.491-18.844-12.491-30.154s4.493-22.155 12.491-30.151c7.995-7.998 18.841-12.491 30.151-12.491s22.155 4.493 30.154 12.491c7.995 7.995 12.488 18.841 12.488 30.151s-4.493 22.155-12.488 30.154c-7.998 7.995-18.844 12.488-30.154 12.488zM43.249 405.359c-5.651 0.078-11.261-0.963-16.504-3.070s-10.016-5.236-14.040-9.204c-4.024-3.966-7.219-8.696-9.4-13.907-2.181-5.214-3.304-10.81-3.304-16.46s1.123-11.245 3.304-16.46c2.181-5.211 5.376-9.942 9.4-13.907 4.024-3.969 8.797-7.097 14.040-9.204 5.244-2.105 10.854-3.149 16.504-3.070h42.641c5.65-0.078 11.26 0.966 16.504 3.070 5.243 2.108 10.016 5.236 14.040 9.204 4.024 3.966 7.219 8.696 9.4 13.907 2.181 5.214 3.304 10.81 3.304 16.46s-1.123 11.245-3.304 16.46c-2.181 5.211-5.376 9.942-9.4 13.907-4.024 3.969-8.797 7.097-14.040 9.204s-10.854 3.149-16.504 3.070zM256.455 405.359c-5.65 0.078-11.26-0.963-16.504-3.070s-10.016-5.236-14.040-9.204c-4.024-3.966-7.219-8.696-9.4-13.907-2.181-5.214-3.304-10.81-3.304-16.46s1.123-11.245 3.304-16.46c2.181-5.211 5.376-9.942 9.4-13.907 4.024-3.969 8.797-7.097 14.040-9.204 5.244-2.105 10.854-3.149 16.504-3.070h298.489c5.65-0.078 11.26 0.966 16.505 3.070 5.242 2.108 10.015 5.236 14.038 9.204 4.027 3.966 7.222 8.696 9.402 13.907 2.181 5.214 3.305 10.81 3.305 16.46s-1.124 11.245-3.305 16.46c-2.181 5.211-5.376 9.942-9.402 13.907-4.024 3.969-8.796 7.097-14.038 9.204-5.245 2.108-10.855 3.149-16.505 3.070zM810.793 405.359c-11.309 0-22.155-4.493-30.15-12.488-7.998-7.998-12.491-18.844-12.491-30.154s4.493-22.155 12.491-30.151c7.995-7.998 18.841-12.491 30.15-12.491s22.155 4.493 30.154 12.491c7.995 7.995 12.488 18.841 12.488 30.151s-4.493 22.155-12.488 30.154c-7.998 7.995-18.844 12.488-30.154 12.488zM981.359 405.359c-11.309 0-22.155-4.493-30.151-12.488-7.998-7.998-12.491-18.844-12.491-30.154s4.493-22.155 12.491-30.151c7.995-7.998 18.841-12.491 30.151-12.491s22.155 4.493 30.154 12.491c7.995 7.995 12.488 18.841 12.488 30.151s-4.493 22.155-12.488 30.154c-7.998 7.995-18.844 12.488-30.154 12.488zM43.249 234.793c-5.651 0.078-11.261-0.963-16.504-3.070s-10.016-5.236-14.040-9.204c-4.024-3.966-7.219-8.696-9.4-13.907-2.181-5.214-3.304-10.81-3.304-16.46s1.123-11.245 3.304-16.46c2.181-5.211 5.376-9.942 9.4-13.907 4.024-3.969 8.797-7.097 14.040-9.204 5.244-2.105 10.854-3.149 16.504-3.070h42.641c5.65-0.078 11.26 0.966 16.504 3.070 5.243 2.108 10.016 5.236 14.040 9.204 4.024 3.966 7.219 8.696 9.4 13.907 2.181 5.214 3.304 10.81 3.304 16.46s-1.123 11.245-3.304 16.46c-2.181 5.211-5.376 9.942-9.4 13.907-4.024 3.969-8.797 7.097-14.040 9.204s-10.854 3.149-16.504 3.070zM256.455 234.793c-5.65 0.078-11.26-0.963-16.504-3.070s-10.016-5.236-14.040-9.204c-4.024-3.966-7.219-8.696-9.4-13.907-2.181-5.214-3.304-10.81-3.304-16.46s1.123-11.245 3.304-16.46c2.181-5.211 5.376-9.942 9.4-13.907 4.024-3.969 8.797-7.097 14.040-9.204 5.244-2.105 10.854-3.149 16.504-3.070h298.489c5.65-0.078 11.26 0.966 16.505 3.070 5.242 2.108 10.015 5.236 14.038 9.204 4.027 3.966 7.222 8.696 9.402 13.907 2.181 5.214 3.305 10.81 3.305 16.46s-1.124 11.245-3.305 16.46c-2.181 5.211-5.376 9.942-9.402 13.907-4.024 3.969-8.796 7.097-14.038 9.204-5.245 2.108-10.855 3.149-16.505 3.070zM810.793 234.793c-11.309 0-22.155-4.493-30.15-12.488-7.998-7.998-12.491-18.844-12.491-30.154s4.493-22.155 12.491-30.151c7.995-7.998 18.841-12.491 30.15-12.491s22.155 4.493 30.154 12.491c7.995 7.995 12.488 18.841 12.488 30.151s-4.493 22.155-12.488 30.154c-7.998 7.995-18.844 12.488-30.154 12.488zM981.359 234.793c-11.309 0-22.155-4.493-30.151-12.488-7.998-7.998-12.491-18.844-12.491-30.154s4.493-22.155 12.491-30.151c7.995-7.998 18.841-12.491 30.151-12.491s22.155 4.493 30.154 12.491c7.995 7.995 12.488 18.841 12.488 30.151s-4.493 22.155-12.488 30.154c-7.998 7.995-18.844 12.488-30.154 12.488zM43.249 64.227c-5.651 0.078-11.261-0.963-16.504-3.070s-10.016-5.236-14.040-9.204c-4.024-3.966-7.219-8.696-9.4-13.907-2.181-5.214-3.304-10.81-3.304-16.46s1.123-11.245 3.304-16.46c2.181-5.211 5.376-9.942 9.4-13.907 4.024-3.969 8.797-7.097 14.040-9.204 5.244-2.105 10.854-3.149 16.504-3.070h42.641c5.65-0.078 11.26 0.966 16.504 3.070 5.243 2.108 10.016 5.236 14.040 9.204 4.024 3.966 7.219 8.696 9.4 13.907 2.181 5.214 3.304 10.81 3.304 16.46s-1.123 11.245-3.304 16.46c-2.181 5.211-5.376 9.942-9.4 13.907-4.024 3.969-8.797 7.097-14.040 9.204s-10.854 3.149-16.504 3.070zM256.455 64.227c-5.65 0.078-11.26-0.963-16.504-3.070s-10.016-5.236-14.040-9.204c-4.024-3.966-7.219-8.696-9.4-13.907-2.181-5.214-3.304-10.81-3.304-16.46s1.123-11.245 3.304-16.46c2.181-5.211 5.376-9.942 9.4-13.907 4.024-3.969 8.797-7.097 14.040-9.204 5.244-2.105 10.854-3.149 16.504-3.070h383.772c5.65-0.078 11.26 0.966 16.505 3.070 5.242 2.108 10.015 5.236 14.038 9.204 4.027 3.966 7.222 8.696 9.402 13.907 2.181 5.214 3.305 10.81 3.305 16.46s-1.124 11.245-3.305 16.46c-2.181 5.211-5.376 9.942-9.402 13.907-4.024 3.969-8.796 7.097-14.038 9.204-5.245 2.108-10.855 3.149-16.505 3.070zM810.793 64.227c-11.309 0-22.155-4.493-30.15-12.488-7.998-7.998-12.491-18.844-12.491-30.154s4.493-22.155 12.491-30.151c7.995-7.998 18.841-12.491 30.15-12.491s22.155 4.493 30.154 12.491c7.995 7.995 12.488 18.841 12.488 30.151s-4.493 22.155-12.488 30.154c-7.998 7.995-18.844 12.488-30.154 12.488zM981.359 64.227c-11.309 0-22.155-4.493-30.151-12.488-7.998-7.998-12.491-18.844-12.491-30.154s4.493-22.155 12.491-30.151c7.995-7.998 18.841-12.491 30.151-12.491s22.155 4.493 30.154 12.491c7.995 7.995 12.488 18.841 12.488 30.151s-4.493 22.155-12.488 30.154c-7.998 7.995-18.844 12.488-30.154 12.488z" />
<glyph unicode="&#xe919;" glyph-name="mask" d="M948.994 916.053c-7.168 1.792-178.688 43.947-436.995 43.947-258.304 0-429.824-42.155-436.992-43.947-19.029-4.736-32.341-21.802-32.341-41.386v-426.667c0-323.84 434.944-501.549 453.504-508.973 5.077-2.003 10.453-3.027 15.829-3.027s10.752 1.024 15.829 3.027c18.56 7.424 453.505 185.133 453.505 508.973v426.667c0 19.584-13.312 36.65-32.339 41.386zM512 192c-103.211 0-189.269 73.299-209.024 170.667h418.051c-19.757-97.368-105.816-170.667-209.027-170.667zM768.002 576h-128.003c-23.552 0-42.667 19.115-42.667 42.667s42.667 42.666 106.669 42.666c64 0 106.662-19.114 106.662-42.666s-19.11-42.667-42.662-42.667zM384 576h-128c-23.552 0-42.667 19.115-42.667 42.667s42.667 42.666 106.667 42.666c64 0 106.667-19.114 106.667-42.666s-19.115-42.667-42.667-42.667z" />
<glyph unicode="&#xe91a;" glyph-name="minus" d="M512 960c-282.752 0-512-229.248-512-512s229.248-512 512-512c282.752 0 512 229.248 512 512s-229.248 512-512 512zM725.331 405.333h-426.664c-23.552 0-42.667 19.072-42.667 42.667s19.115 42.667 42.667 42.667h426.664c23.552 0 42.669-19.072 42.669-42.667s-19.117-42.667-42.669-42.667z" />
<glyph unicode="&#xe91b;" glyph-name="pin" d="M512 960c-230.459 0-417.293-186.834-417.293-417.293 0-274.428 271.317-405.799 305.307-436.376 34.711-31.221 63.391-101.212 74.96-140.893 5.615-19.271 21.396-29.021 37.025-29.438 15.668 0.457 31.411 10.205 37.025 29.438 11.571 39.681 40.25 109.634 74.961 140.893 33.99 30.576 305.307 161.948 305.307 436.376 0 230.459-186.833 417.293-417.293 417.293zM512 428.899c-62.859 0-113.807 50.948-113.807 113.808s50.948 113.807 113.807 113.807c62.86 0 113.808-50.948 113.808-113.807s-50.948-113.808-113.808-113.808z" />
<glyph unicode="&#xe91c;" glyph-name="plus" d="M512 960c-282.752 0-512-229.248-512-512s229.248-512 512-512c282.752 0 512 229.248 512 512s-229.248 512-512 512zM725.331 405.333h-170.664v-170.664c0-23.597-19.115-42.669-42.667-42.669s-42.667 19.072-42.667 42.669v170.664h-170.666c-23.552 0-42.667 19.072-42.667 42.667s19.115 42.667 42.667 42.667h170.666v170.666c0 23.595 19.115 42.667 42.667 42.667s42.667-19.072 42.667-42.667v-170.666h170.664c23.552 0 42.669-19.072 42.669-42.667s-19.117-42.667-42.669-42.667z" />
<glyph unicode="&#xe91d;" glyph-name="switch-horizontal" d="M753.589 959.888c-10.704-0.016-21.154-3.218-30.028-9.202s-15.757-14.476-19.782-24.394c-4.020-9.912-4.994-20.804-2.798-31.277 2.201-10.472 7.469-20.051 15.138-27.515l123.391-123.396h-784.928c-7.131 0.102-14.211-1.216-20.829-3.874s-12.64-6.609-17.719-11.613c-5.078-5.010-9.111-10.978-11.864-17.554-2.752-6.581-4.17-13.642-4.17-20.772s1.417-14.191 4.17-20.772c2.752-6.576 6.785-12.544 11.864-17.554 5.078-5.005 11.101-8.955 17.719-11.613s13.697-3.977 20.829-3.874h784.928l-123.391-123.396c-5.166-4.956-9.288-10.897-12.13-17.468s-4.343-13.647-4.413-20.805c-0.077-7.163 1.281-14.261 3.987-20.891s6.711-12.651 11.769-17.714c5.064-5.063 11.086-9.064 17.716-11.771s13.728-4.063 20.891-3.99c7.157 0.072 14.234 1.573 20.805 4.414s12.512 6.964 17.468 12.129l215.257 215.258c10.090 10.090 15.757 23.775 15.757 38.047s-5.667 27.956-15.757 38.047l-215.257 215.257c-5.021 5.161-11.027 9.267-17.662 12.065s-13.76 4.235-20.961 4.23zM268.787 475.561c-13.981-0.42-27.25-6.264-36.997-16.295l-215.257-215.255c-10.088-10.092-15.756-23.778-15.756-38.048s5.667-27.956 15.756-38.048l215.257-215.257c4.959-5.165 10.898-9.288 17.471-12.129s13.645-4.341 20.805-4.414c7.159-0.072 14.262 1.284 20.89 3.99s12.651 6.708 17.714 11.771c5.062 5.063 9.064 11.085 11.771 17.714s4.062 13.731 3.99 20.89c-0.073 7.159-1.574 14.233-4.414 20.805s-6.964 12.511-12.129 17.47l-123.394 123.394h784.93c7.13-0.102 14.212 1.217 20.826 3.876 6.619 2.659 12.641 6.607 17.721 11.614s9.111 10.973 11.866 17.553c2.75 6.579 4.166 13.64 4.166 20.772s-1.415 14.192-4.166 20.771c-2.756 6.579-6.786 12.546-11.866 17.553s-11.102 8.955-17.721 11.614c-6.614 2.659-13.696 3.976-20.826 3.876h-784.93l123.394 123.394c7.776 7.559 13.088 17.29 15.238 27.92s1.039 21.66-3.187 31.648c-4.227 9.989-11.372 18.465-20.499 24.319-9.127 5.86-19.811 8.82-30.651 8.503z" />
<glyph unicode="&#xe91e;" glyph-name="switch-vertical" d="M1023.888 206.411c-0.016 10.704-3.218 21.154-9.202 30.028s-14.476 15.757-24.394 19.782c-9.912 4.020-20.804 4.994-31.277 2.798-10.472-2.201-20.051-7.469-27.515-15.138l-123.396-123.391v784.928c0.102 7.131-1.216 14.211-3.874 20.829s-6.609 12.64-11.613 17.719c-5.010 5.078-10.978 9.111-17.554 11.864-6.581 2.752-13.642 4.17-20.772 4.17s-14.191-1.417-20.772-4.17c-6.576-2.752-12.544-6.785-17.554-11.864-5.005-5.078-8.955-11.101-11.613-17.719s-3.977-13.697-3.874-20.829v-784.928l-123.396 123.391c-4.956 5.166-10.897 9.288-17.468 12.13s-13.647 4.343-20.805 4.413c-7.163 0.077-14.261-1.281-20.891-3.987s-12.651-6.711-17.714-11.769c-5.063-5.064-9.064-11.086-11.771-17.716s-4.063-13.728-3.99-20.891c0.071-7.157 1.574-14.234 4.414-20.805s6.964-12.512 12.129-17.468l215.258-215.257c10.090-10.090 23.775-15.757 38.047-15.757s27.956 5.667 38.047 15.757l215.257 215.257c5.161 5.021 9.267 11.027 12.065 17.662s4.235 13.76 4.23 20.961zM539.561 691.213c-0.42 13.981-6.264 27.25-16.295 36.997l-215.255 215.257c-10.092 10.088-23.778 15.756-38.048 15.756s-27.956-5.667-38.048-15.756l-215.257-215.257c-5.165-4.959-9.288-10.898-12.129-17.471s-4.341-13.645-4.414-20.805c-0.073-7.159 1.284-14.262 3.99-20.89s6.708-12.651 11.771-17.714c5.063-5.062 11.085-9.064 17.714-11.771s13.731-4.062 20.89-3.99c7.159 0.073 14.233 1.574 20.805 4.414s12.511 6.964 17.47 12.129l123.394 123.394v-784.93c-0.101-7.13 1.217-14.212 3.876-20.826 2.659-6.619 6.607-12.641 11.614-17.721s10.973-9.111 17.553-11.866c6.579-2.75 13.64-4.166 20.772-4.166s14.192 1.415 20.771 4.166c6.579 2.756 12.546 6.786 17.553 11.866s8.955 11.102 11.614 17.721c2.659 6.614 3.976 13.696 3.876 20.826v784.93l123.394-123.394c7.559-7.776 17.29-13.088 27.92-15.238s21.66-1.039 31.648 3.187c9.989 4.227 18.465 11.372 24.32 20.499 5.86 9.127 8.82 19.811 8.503 30.651z" />
<glyph unicode="&#xe91f;" glyph-name="telegram" d="M1004.66 900.985c-17.467 14.812-44.901 16.932-73.269 5.543h-0.043c-29.835-11.971-844.506-361.408-877.67-375.685-6.032-2.096-58.713-21.753-53.287-65.536 4.844-39.476 47.185-55.826 52.355-57.712l207.114-70.917c13.741-45.739 64.396-214.496 75.598-250.549 6.987-22.475 18.375-52.005 38.335-58.085 17.514-6.752 34.934-0.581 46.206 8.267l126.623 117.451 204.416-159.419 4.869-2.907c13.877-6.149 27.179-9.227 39.867-9.227 9.808 0 19.216 1.84 28.208 5.52 30.624 12.576 42.875 41.76 44.155 45.067l152.688 793.639c9.317 42.387-3.632 63.953-16.165 74.55zM442.521 308.31l-69.869-186.314-69.869 232.896 535.658 395.922z" />
<glyph unicode="&#xe920;" glyph-name="twitter" d="M1024 765.564c-37.69-16.738-78.179-28.001-120.671-33.082 43.402 25.993 76.679 67.148 92.352 116.219-40.561-24.063-85.54-41.549-133.426-51.001-38.321 40.84-92.906 66.36-153.322 66.36-116.022 0-210.069-94.086-210.069-210.069 0-16.462 1.89-32.531 5.435-47.85-174.583 8.743-329.359 92.393-433.015 219.521-18.038-31.034-28.395-67.109-28.395-105.665 0-72.858 37.059-137.171 93.416-174.821-34.42 1.103-66.833 10.555-95.149 26.269 0-0.906 0-1.733 0-2.639 0-101.805 72.386-186.715 168.52-205.973-17.604-4.803-36.193-7.366-55.372-7.366-13.509 0-26.702 1.341-39.501 3.745 26.741-83.454 104.326-144.224 196.246-145.914-71.874-56.357-162.455-89.953-260.912-89.953-16.935 0-33.673 0.986-50.135 2.954 92.983-59.588 203.374-94.36 322.035-94.36 386.425 0 597.675 320.102 597.675 597.714 0 9.097-0.195 18.155-0.591 27.174 41.080 29.655 76.72 66.636 104.88 108.737z" />
<glyph unicode="&#xe921;" glyph-name="unverified" d="M896 448c0-212.077-171.923-384-384-384v0c-212.077 0-384 171.923-384 384v0c0 212.077 171.923 384 384 384v0c212.077 0 384-171.923 384-384v0zM512 960c-282.58 0-512-229.42-512-512s229.42-512 512-512c282.58 0 512 229.42 512 512s-229.42 512-512 512zM512 928c265.286 0 480-214.714 480-480s-214.714-480-480-480c-265.286 0-480 214.714-480 480s214.714 480 480 480z" />
<glyph unicode="&#xe922;" glyph-name="usd" d="M512.002 960c-282.882 0-512.002-229.12-512.002-512s229.12-512 512.002-512c282.877 0 511.998 229.12 511.998 512s-229.12 512-511.998 512zM554.669 260.267v-68.267h-85.333v68.267c-62.72 11.52-102.4 50.347-104.534 106.667h73.813c3.84-29.867 33.707-48.64 76.37-48.64 40.107 0 67.84 19.2 67.84 46.933 0 23.040-17.917 36.693-62.717 46.080l-47.787 10.24c-66.56 14.080-98.987 48.64-98.987 104.107 0 56.32 36.693 96 96 109.227v69.12h85.333v-69.12c57.6-12.8 95.997-52.053 98.13-104.96h-72.104c-3.413 28.587-30.293 48.213-67.413 48.213-37.973 0-63.573-17.92-63.573-45.653 0-22.613 17.493-35.413 60.587-44.8l43.947-9.387c73.387-15.36 104.96-46.933 104.96-103.68 0-61.013-39.253-101.973-104.534-114.347z" />
<glyph unicode="&#xe923;" glyph-name="user-circle" d="M512 960c-282.752 0-512-229.248-512-512 0-151.981 66.62-288.051 171.75-381.83v12.499l5.917 9.914c43.776 73.728 209.364 146.086 334.25 146.086 124.97 0 290.598-72.314 334.336-146.086l5.997-9.997v-12.416c105.171 93.734 171.75 229.85 171.75 381.83 0 282.752-229.248 512-512 512zM512 704c94.122 0 170.669-76.544 170.669-170.667v-42.666c0-94.123-76.547-170.667-170.669-170.667s-170.667 76.544-170.667 170.667v42.666c0 94.123 76.544 170.667 170.667 170.667zM512 618.667c-47.061 0-85.333-38.272-85.333-85.334v-42.666c0-47.062 38.272-85.334 85.333-85.334s85.333 38.272 85.333 85.334v42.666c0 47.062-38.272 85.334-85.333 85.334zM511.915 149.331c-99.030 0-220.399-56.736-254.917-96.25l-0.081-48.582c75.136-43.347 162.070-68.499 255.084-68.499 92.971 0 179.904 25.19 255.085 68.499-0.043 15.232-0.128 31.347-0.166 48.582-34.522 39.514-155.93 96.25-255.002 96.25z" />
<glyph unicode="&#xe924;" glyph-name="user-id" d="M908.8 857.715c63.615 0 115.2-51.584 115.2-115.2v-589.030c0-63.615-51.585-115.2-115.2-115.2h-793.6c-63.616 0-115.2 51.585-115.2 115.2v589.030c0 63.616 51.584 115.2 115.2 115.2zM371.201 422.515h-179.201c-19.43 0-35.507-14.438-38.041-33.178l-0.358-5.222v-25.19l0.41-5.554c8.32-57.013 56.038-84.532 127.59-84.532 68.146 0 114.662 24.935 126.158 76.517l1.459 7.938 0.384 5.606v25.215c0 19.43-14.438 35.506-33.178 38.041zM832 397.119h-230.274l-5.222-0.356c-18.739-2.534-33.178-18.613-33.178-38.044s14.438-35.506 33.178-38.041l5.222-0.359h230.274l5.222 0.359c18.739 2.534 33.178 18.586 33.178 38.041 0 19.43-14.438 35.509-33.178 38.044zM281.6 627.213c-42.419 0-76.8-34.381-76.8-76.801 0-42.418 34.381-76.8 76.8-76.8s76.8 34.382 76.8 76.8c0 42.421-34.382 76.801-76.8 76.801zM832 576.115h-230.274l-5.222-0.358c-18.739-2.534-33.178-18.611-33.178-38.042s14.438-35.506 33.178-38.041l5.222-0.359h230.274l5.222 0.359c18.739 2.534 33.178 18.61 33.178 38.041s-14.438 35.507-33.178 38.042z" />
<glyph unicode="&#xe925;" glyph-name="user" d="M512.045 960c-147.545 0-267.13-119.585-267.13-267.13v-44.522c0-147.545 119.585-267.13 267.13-267.13s267.127 119.585 267.127 267.13v44.522c0 147.545-119.582 267.13-267.127 267.13zM511.958 247.652c-178.354 0-407.195-96.471-473.043-182.086-40.693-52.936-1.955-129.566 64.783-129.566h816.608c66.738 0 105.472 76.629 64.779 129.566-65.848 85.571-294.773 182.086-473.127 182.086z" />
<glyph unicode="&#xe926;" glyph-name="verified" d="M512 832c-212.064 0-384-171.936-384-384s171.936-384 384-384c212.064 0 384 171.936 384 384s-171.936 384-384 384zM726.624 521.376l-241.92-241.92c-6.016-6.016-14.144-9.376-22.624-9.376s-16.64 3.36-22.624 9.376l-110.496 110.496c-12.512 12.512-12.512 32.736 0 45.248s32.736 12.512 45.248 0l87.872-87.872 219.296 219.296c12.512 12.512 32.736 12.512 45.248 0s12.512-32.736 0-45.248zM512 960c-282.58 0-512-229.42-512-512s229.42-512 512-512c282.58 0 512 229.42 512 512s-229.42 512-512 512zM512 928c265.286 0 480-214.714 480-480s-214.714-480-480-480c-265.286 0-480 214.714-480 480s214.714 480 480 480z" />
<glyph unicode="&#xe927;" glyph-name="video" d="M68.267 755.2c-37.718 0-68.267-30.549-68.267-68.267v-477.866c0-37.719 30.549-68.268 68.267-68.268h580.266c37.719 0 68.268 30.548 68.268 68.268v477.866c0 37.718-30.548 68.267-68.268 68.267zM989.868 686.933c-8.891 0-17.428-3.468-23.8-9.667l-181-161v-136.534l182.267-162.132c6.223-5.489 14.234-8.522 22.533-8.532 9.052 0 17.733 3.594 24.136 9.997 6.4 6.4 9.997 15.084 9.997 24.136v409.6c0 9.053-3.597 17.735-9.997 24.136-6.403 6.401-15.084 9.997-24.136 9.997z" />
<glyph unicode="&#xe928;" glyph-name="wallet" d="M139.636 959.998c-76.566 0-139.636-63.071-139.636-139.636v-744.727c0-77.126 62.51-139.637 139.636-139.637h791.273c51.433 0 93.091 41.658 93.091 93.091v651.636c0 51.433-41.658 93.091-93.091 93.091h-791.273c-26.299 0-46.546 20.246-46.546 46.546s20.247 46.546 46.546 46.546h698.182c6.167-0.088 12.296 1.052 18.021 3.352 5.718 2.3 10.93 5.714 15.321 10.045s7.882 9.491 10.263 15.182c2.382 5.69 3.607 11.797 3.607 17.966s-1.226 12.275-3.607 17.966c-2.382 5.69-5.873 10.851-10.263 15.182s-9.604 7.745-15.321 10.045c-5.725 2.3-11.854 3.439-18.021 3.352zM837.818 447.997c51.433 0 93.091-41.658 93.091-93.091s-41.658-93.091-93.091-93.091c-51.433 0-93.091 41.658-93.091 93.091s41.658 93.091 93.091 93.091z" />
<glyph unicode="&#xe929;" glyph-name="jpy" d="M512 960c-282.752 0-512-229.248-512-512s229.248-512 512-512c282.752 0 512 229.248 512 512s-229.248 512-512 512zM640 405.333v-42.667h-85.333v-42.667h85.333v-42.667h-85.333v-42.667h-85.333v42.667h-85.333v42.667h85.333v42.667h-85.333v42.667h77.696l-142.933 256h96.683l94.037-178.603h5.333l93.739 178.603h96.683l-142.933-256z" />
<glyph unicode="&#xe92a;" glyph-name="close" d="M139.646 959.987c-11.91 0-23.833-4.537-32.909-13.636l-93.088-93.088c-18.199-18.199-18.199-47.665 0-65.817l339.446-339.446-339.446-339.445c-18.199-18.199-18.199-47.665 0-65.817l93.088-93.089c18.199-18.199 47.665-18.199 65.817 0l339.446 339.446 339.445-339.446c18.152-18.199 47.665-18.199 65.817 0l93.089 93.089c18.199 18.199 18.199 47.665 0 65.817l-339.446 339.445 339.446 339.446c18.199 18.152 18.199 47.665 0 65.817l-93.089 93.088c-18.199 18.199-47.665 18.199-65.817 0l-339.445-339.446-339.446 339.446c-9.099 9.099-20.998 13.636-32.908 13.636z" />
<glyph unicode="&#xe92b;" glyph-name="eth" d="M512 960c-282.77 0-512-229.23-512-512v0c0-282.77 229.23-512 512-512v0c282.77 0 512 229.23 512 512v0c0 282.77-229.23 512-512 512v0zM512 789.333c4.693 0 8.66-2.233 11.25-5.5 0.213-0.253 0.567-0.387 0.75-0.667l199.083-293.333c0.226-0.346 0.303-0.808 0.5-1.167 0.469-0.841 0.731-1.595 1-2.5 0.226-0.789 0.432-1.602 0.5-2.417 0.085-0.917 0.043-1.815-0.085-2.75-0.068-0.516 0.043-0.992-0.085-1.5-0.102-0.358-0.371-0.65-0.5-1-0.128-0.358-0.094-0.738-0.252-1.083-0.341-0.747-0.864-1.347-1.333-2-0.243-0.333-0.41-0.693-0.667-1-1.084-1.267-2.299-2.356-3.75-3.167-0.085-0.043-0.166-0.111-0.252-0.166l-199.083-106.667c-0.311-0.175-0.676-0.183-1-0.333-0.401-0.171-0.753-0.354-1.167-0.5-1.579-0.55-3.252-0.916-4.917-0.916s-3.338 0.384-4.917 0.916c-0.414 0.145-0.783 0.247-1.167 0.418-0.329 0.149-0.689 0.243-1 0.418l-199.083 106.667c-0.469 0.252-0.723 0.693-1.167 1-0.811 0.559-1.567 1.117-2.25 1.833-0.627 0.653-1.114 1.407-1.583 2.167-0.299 0.478-0.757 0.813-1 1.333-0.171 0.346-0.122 0.738-0.25 1.083-0.128 0.35-0.402 0.642-0.5 1-0.141 0.508-0.011 0.984-0.083 1.5-0.128 0.934-0.156 1.845-0.083 2.75 0.068 0.815 0.27 1.544 0.5 2.333 0.269 0.905 0.543 1.743 1 2.583 0.196 0.358 0.261 0.821 0.5 1.167l199.090 293.329c0.196 0.293 0.537 0.4 0.75 0.667 2.59 3.267 6.557 5.5 11.25 5.5zM512 755.167l-176.917-263.333 176.917 57.5zM512 549.333v-160l167.25 91.583zM310.583 429.167c3.136 0.478 6.432-0.039 9.333-1.583l192.083-102.917 192.083 102.917c5.82 3.119 13.199 1.969 17.667-2.75 4.48-4.706 4.818-11.685 0.833-16.75l-199.167-253.333c-0.171-0.23-0.483-0.286-0.667-0.5-0.956-1.079-2.070-1.92-3.334-2.667-0.486-0.282-0.905-0.686-1.417-0.916-1.847-0.811-3.824-1.333-6-1.333s-4.152 0.523-6 1.333c-0.529 0.23-0.934 0.622-1.417 0.916-1.267 0.747-2.378 1.587-3.334 2.667-0.183 0.213-0.483 0.269-0.667 0.5l-199.167 253.333c-3.985 5.065-3.633 12.044 0.833 16.75 2.24 2.347 5.197 3.86 8.333 4.333zM364.25 373.083l147.75-185.417v104.167z" />
<glyph unicode="&#xe92c;" glyph-name="chf" d="M512 960c-282.752 0-512-229.248-512-512s229.248-512 512-512c282.752 0 512 229.248 512 512s-229.248 512-512 512zM682.667 576h-213.333v-85.333h170.667v-85.333h-170.667v-42.667h128v-42.667h-128v-85.333h-85.333v85.333h-42.667v42.667h42.667v298.667h298.667v-85.333z" />
<glyph unicode="&#xe92d;" d="M512 960c-67.238 0.011-133.793-13.19-195.917-38.917s-118.621-63.454-166.167-111c-47.546-47.546-85.274-104.043-111-166.167s-38.928-128.678-38.917-195.917c0-101.265 29.991-200.218 86.25-284.417s136.277-149.833 229.833-188.583c93.556-38.754 196.514-48.921 295.833-29.167s190.476 68.563 262.083 140.167c71.603 71.607 120.412 162.764 140.167 262.083s9.587 202.278-29.167 295.833c-38.75 93.556-104.385 173.574-188.583 229.833s-183.152 86.25-284.417 86.25zM513.583 819.083c53.065-0.356 104.71-17.446 147.5-48.833l-92.667-92.833c-17.067 10.145-36.56 15.467-56.417 15.417-18.735 0.035-37.133-4.712-53.5-13.833l-93 93.25c43.206 30.81 95.019 47.189 148.083 46.833zM318.75 726.917l95.833-95.667c-5.338-11.798-8.149-24.551-8.25-37.5 0-54.442 47.346-99 105.667-99 58.317 0 105.583 44.228 105.583 99-0.021 11.752-2.244 23.412-6.583 34.333l96.25 96.333c16.226-21.126 28.452-45.036 36-70.583 5.769-19.468 8.637-39.695 8.667-60-0.158-53.391-20.109-104.807-56-144.333-0.41-0.448-0.725-0.926-1.083-1.417l1.083-1.333c35.866-39.543 55.808-90.945 56-144.333-0.034-20.331-2.902-40.585-8.667-60.083-7.573-25.562-19.795-49.5-36-70.667l-96.25 96.25c4.339 10.953 6.562 22.636 6.583 34.417 0 54.605-47.267 99-105.583 99-58.321 0-105.667-44.31-105.667-99l-0.5 0.085c0.084-12.949 2.896-25.707 8.25-37.5l-95.583-95.75c-17.179 21.769-30.138 46.598-38.083 73.167-5.59 19.494-8.369 39.72-8.25 60 0.162 53.376 20.159 104.781 56 144.333l1.083 1.331c-0.409 0.448-0.723 0.93-1.083 1.417-35.868 39.535-55.869 90.952-56 144.333-0.132 20.281 2.647 40.508 8.25 60 8.001 26.596 21.049 51.426 38.333 73.167zM568.417 218.667l92.667-92.583c-42.79-31.386-94.435-48.479-147.5-48.833s-104.877 16.024-148.083 46.833l93 92.917c16.367-9.122 34.765-13.872 53.5-13.833 19.87-0.064 39.371 5.294 56.417 15.5z" />
<glyph unicode="&#xe92e;" glyph-name="gravatar" d="M1024 448c0 282.752-229.248 512-512 512s-512-229.248-512-512c0-282.752 229.248-512 512-512s512 229.248 512 512zM938.667 448c0-235.264-191.403-426.667-426.666-426.667h-64c-82.347 0-149.333 66.987-149.333 149.333 0 51.456 26.151 96.912 65.917 123.749-40.448 38.869-65.917 93.211-65.917 153.584 0 117.632 95.701 213.333 213.333 213.333s213.333-95.701 213.333-213.333c0-117.632-95.701-213.333-213.333-213.333h-64c-35.285 0-64-28.715-64-64s28.715-64 64-64h64c188.202 0 341.333 153.131 341.333 341.334s-153.131 341.333-341.333 341.333c-188.203 0-341.333-153.131-341.333-341.333 0-23.595-19.115-42.667-42.667-42.667s-42.667 19.072-42.667 42.667c0 235.264 191.403 426.667 426.667 426.667s426.666-191.403 426.666-426.667zM640 448c0 33.948-13.483 66.505-37.488 90.509s-56.565 37.491-90.512 37.491c-33.948 0-66.505-13.486-90.51-37.491s-37.49-56.562-37.49-90.509c0-33.947 13.486-66.507 37.49-90.512 24.005-24 56.562-37.488 90.51-37.488 33.946 0 66.506 13.488 90.512 37.488 24.005 24.005 37.488 56.565 37.488 90.512z" />
<glyph unicode="&#xe92f;" glyph-name="search" d="M426.408 959.998c-234.994 0-426.408-191.415-426.408-426.408 0-234.997 191.414-426.405 426.408-426.405 102.189 0 196.037 36.287 269.589 96.525l254.594-254.601c3.93-4.093 8.635-7.356 13.844-9.608 5.202-2.253 10.809-3.44 16.481-3.496 5.678-0.057 11.3 1.016 16.552 3.162 5.259 2.139 10.028 5.316 14.036 9.324 4.015 4.015 7.185 8.784 9.331 14.036s3.219 10.881 3.162 16.552c-0.057 5.671-1.251 11.279-3.496 16.488-2.253 5.21-5.522 9.914-9.616 13.844l-254.594 254.594c60.237 73.55 96.525 167.397 96.525 269.586 0 234.994-191.414 426.408-426.408 426.408zM426.408 874.717c188.905 0 341.127-152.223 341.127-341.127s-152.222-341.123-341.127-341.123c-188.904 0-341.127 152.219-341.127 341.123s152.223 341.127 341.127 341.127z" />
<glyph unicode="&#xe930;" glyph-name="contacts" d="M78.769 881.231c-43.52 0-78.769-35.249-78.769-78.769v-708.923c0-43.52 35.249-78.769 78.769-78.769h78.769v19.692c0 32.61 26.466 59.077 59.077 59.077s59.077-26.466 59.077-59.077v-19.692h472.615v19.692c0 32.61 26.466 59.077 59.077 59.077s59.077-26.466 59.077-59.077v-19.692h78.769c43.52 0 78.769 35.249 78.769 78.769v630.154c0 43.52-35.249 78.769-78.769 78.769h-582.923l-24.308 40.538c-14.218 23.71-39.851 38.231-67.538 38.231zM315.077 644.923c37.573 0 49.231-26.692 49.231-26.692 33.595 0 49.231-36.758 49.231-79.923 0-21.543-8.692-39.385-8.692-39.385 3.466-2.166 9.263-9.059 7.845-21.306-2.678-22.804-11.823-28.605-17.617-29.078-2.204-21.268-23.286-48.526-30.69-52.464v-35.616c14.73-47.931 86.648-24.43 108.31-109.383h-315.156c21.662 84.953 93.578 61.452 108.308 109.383v35.616c-7.404 3.938-28.487 31.197-30.692 52.464-5.79 0.473-14.937 6.274-17.615 29.078-1.457 12.247 4.264 19.14 7.769 21.306 0 0-8.615 19.732-8.615 39.385-0.039 58.289 28.792 106.615 98.385 106.615zM590.769 526.769h236.308c21.74 0 39.385-17.644 39.385-39.385s-17.644-39.385-39.385-39.385h-236.308c-21.74 0-39.385 17.644-39.385 39.385s17.644 39.385 39.385 39.385zM590.769 369.231h236.308c21.74 0 39.385-17.644 39.385-39.385s-17.644-39.385-39.385-39.385h-236.308c-21.74 0-39.385 17.644-39.385 39.385s17.644 39.385 39.385 39.385z" />
<glyph unicode="&#xe931;" glyph-name="eye-on" d="M512 789.333c-304.411 0-501.044-314.408-504.6-320.133-4.787-6.030-7.395-13.501-7.4-21.2 0.006-6.605 1.928-13.066 5.533-18.599 0.044-0.068 0.089-0.133 0.133-0.201 0.587-1.212 165.643-322.533 506.333-322.533 339.244 0 504.057 318.167 506.068 322.065 0.137 0.222 0.27 0.444 0.399 0.669 3.604 5.533 5.526 11.994 5.533 18.599 0 7.668-2.584 15.113-7.332 21.133-0.024 0.022-0.044 0.044-0.068 0.068-3.557 5.723-200.189 320.132-504.6 320.132zM512 686.933c131.959 0 238.933-106.974 238.933-238.933s-106.974-238.933-238.933-238.933c-131.959 0-238.933 106.974-238.933 238.933s106.974 238.933 238.933 238.933zM512 550.4c-27.156 0-53.204-10.789-72.407-29.992s-29.993-45.25-29.993-72.408c0-27.156 10.79-53.204 29.993-72.407s45.251-29.993 72.407-29.993c27.156 0 53.204 10.79 72.407 29.993s29.993 45.251 29.993 72.407c0 27.158-10.79 53.204-29.993 72.408s-45.251 29.992-72.407 29.992z" />
<glyph unicode="&#xe932;" glyph-name="eye-off" d="M58.267 949.999l-48.267-48.267 955.734-955.732 48.265 48.265-205.667 205.667c139.807 94.662 208.814 227.021 209.736 228.799 3.871 5.68 5.939 12.394 5.932 19.268-0.007 7.7-2.615 15.169-7.4 21.2-3.557 5.724-200.189 320.133-504.6 320.133-86.361 0-163.864-25.606-230.933-62.133zM512 686.933c131.959 0 238.933-106.974 238.933-238.933 0-53.658-18.091-102.837-47.998-142.667l-73.533 73.533c12.066 20.251 19.132 43.817 19.132 69.134 0 75.401-61.133 136.533-136.533 136.533-25.317 0-48.882-7.066-69.134-19.132l-73.533 73.532c39.83 29.911 89.009 48 142.667 48zM169 650.2c-101.445-85.331-159.614-177.863-161.533-180.935-4.825-6.038-7.458-13.534-7.467-21.265 0.007-6.687 1.977-13.223 5.667-18.801 0.587-1.212 165.643-322.533 506.333-322.533 63.147 0 120.166 11.145 171.332 29.133l-88.334 88.402c-25.907-9.626-53.78-15.135-82.999-15.135-131.959 0-238.933 106.974-238.933 238.933 0 29.218 5.508 57.091 15.133 82.999zM375.866 444.2c2.048-72.26 60.006-130.287 132.267-132.335z" />
<glyph unicode="&#xe933;" d="M286.172 51.653l444.35-2.755-145.268 168.056-146.693-1.378zM284.84 821.853l444.351 2.848-145.268-173.752-146.693 1.424z" />
<glyph unicode="&#xe934;" d="M512 960c-67.238 0.011-133.793-13.19-195.917-38.917s-118.621-63.454-166.167-111c-47.546-47.546-85.274-104.043-111-166.167s-38.928-128.678-38.917-195.917c0-101.265 29.991-200.218 86.25-284.417s136.277-149.833 229.833-188.583c93.556-38.754 196.514-48.921 295.833-29.167s190.476 68.563 262.083 140.167c71.603 71.607 120.412 162.764 140.167 262.083s9.587 202.278-29.167 295.833c-38.75 93.556-104.385 173.574-188.583 229.833s-183.152 86.25-284.417 86.25zM513.583 819.083c53.065-0.356 104.71-17.446 147.5-48.833l-92.667-92.833c-17.067 10.145-36.56 15.467-56.417 15.417-18.735 0.035-37.133-4.712-53.5-13.833l-93 93.25c43.206 30.81 95.019 47.189 148.083 46.833zM318.75 726.917l95.833-95.667c-5.338-11.798-8.149-24.551-8.25-37.5 0-54.442 47.346-99 105.667-99 58.317 0 105.583 44.228 105.583 99-0.021 11.752-2.244 23.412-6.583 34.333l96.25 96.333c16.226-21.126 28.452-45.036 36-70.583 5.769-19.468 8.637-39.695 8.667-60-0.158-53.391-20.109-104.807-56-144.333-0.41-0.448-0.725-0.926-1.083-1.417l1.083-1.333c35.866-39.543 55.808-90.945 56-144.333-0.034-20.331-2.902-40.585-8.667-60.083-7.573-25.562-19.795-49.5-36-70.667l-96.25 96.25c4.339 10.953 6.562 22.636 6.583 34.417 0 54.605-47.267 99-105.583 99-58.321 0-105.667-44.31-105.667-99l-0.5 0.085c0.084-12.949 2.896-25.707 8.25-37.5l-95.583-95.75c-17.179 21.769-30.138 46.598-38.083 73.167-5.59 19.494-8.369 39.72-8.25 60 0.162 53.376 20.159 104.781 56 144.333l1.083 1.331c-0.409 0.448-0.723 0.93-1.083 1.417-35.868 39.535-55.869 90.952-56 144.333-0.132 20.281 2.647 40.508 8.25 60 8.001 26.596 21.049 51.426 38.333 73.167zM568.417 218.667l92.667-92.583c-42.79-31.386-94.435-48.479-147.5-48.833s-104.877 16.024-148.083 46.833l93 92.917c16.367-9.122 34.765-13.872 53.5-13.833 19.87-0.064 39.371 5.294 56.417 15.5z" />
<glyph unicode="&#xe935;" d="M286.172 51.653l444.35-2.755-145.268 168.056-146.693-1.378zM284.84 821.853l444.351 2.848-145.268-173.752-146.693 1.424z" />
<glyph unicode="&#xe936;" glyph-name="money-bag" d="M512.064 959.987c-34.851 0-65.81-15.36-87.436-39.359h-109.359c-27.845 0-47.025-28.266-36.667-54.103l36.538-103.462h393.846l36.538 103.462c10.358 25.836-8.822 54.103-36.667 54.103h-109.359c-21.622 23.999-52.584 39.359-87.436 39.359zM315.141 684.218c0 0-275.769-236.231-275.769-511.923 0-157.538 118.154-236.282 196.923-236.282h551.41c78.769 0 196.923 78.744 196.923 236.282 0 275.692-275.641 511.923-275.641 511.923zM512.064 369.218c43.481-0.029 78.718-35.284 78.718-78.769 0-0.027 0-0.054 0-0.081v0.004c-0.029-43.463-35.255-78.689-78.715-78.718h-0.003c-0.023 0-0.050 0-0.077 0-43.485 0-78.74 35.237-78.769 78.715v0.003c0 0.023 0 0.050 0 0.077 0 43.503 35.266 78.769 78.769 78.769 0.027 0 0.054 0 0.081 0h-0.004z" />
<glyph unicode="&#xe937;" glyph-name="linkedin" d="M930.909 960h-837.818c-51.433 0-93.091-41.658-93.091-93.091v-837.817c0-51.433 41.658-93.091 93.091-93.091h837.818c51.433 0 93.091 41.658 93.091 93.091v837.817c0 51.433-41.658 93.091-93.091 93.091zM323.677 122.182h-137.31v441.809h137.31zM253.626 627.153c-44.265 0-80.058 35.887-80.058 80.058s35.84 80.012 80.058 80.012c44.125 0 80.012-35.887 80.012-80.012 0-44.172-35.887-80.058-80.012-80.058zM838.004 122.182h-137.216v214.854c0 51.247-0.931 117.154-71.354 117.154-71.447 0-82.433-55.808-82.433-113.431v-218.577h-137.216v441.809h131.724v-60.369h1.862c18.339 34.723 63.116 71.354 129.909 71.354 139.031 0 164.724-91.508 164.724-210.478z" />
<glyph unicode="&#xe938;" glyph-name="light" d="M184.481 960.006c-5.166 0.069-10.294-0.897-15.080-2.843s-9.134-4.831-12.786-8.485c-7.249-7.251-11.322-17.084-11.322-27.338s4.073-20.086 11.322-27.337c7.251-7.249 17.084-11.322 27.337-11.322s20.087 4.073 27.338 11.322c7.249 7.251 11.322 17.084 11.322 27.337s-4.073 20.087-11.322 27.338c-7.12 7.123-16.739 11.187-26.809 11.328zM840.652 960.006c-5.179 0.080-10.318-0.882-15.12-2.828-4.796-1.946-9.158-4.836-12.818-8.5-7.25-7.251-11.327-17.084-11.327-27.338s4.077-20.086 11.327-27.337c7.25-7.249 17.080-11.322 27.334-11.322s20.085 4.073 27.34 11.322c7.25 7.251 11.321 17.084 11.321 27.337s-4.071 20.087-11.321 27.338c-7.105 7.105-16.692 11.168-26.737 11.328zM512.001 941.277c-192.204 0-347.986-155.782-347.986-347.986 0-193.323 154.661-270.658 231.991-425.314h231.993c77.328 154.656 231.99 231.99 231.99 425.314 0 192.204-155.782 347.986-347.988 347.986zM512.001 825.282v-193.325h154.659l-154.659-270.656v193.326h-154.66zM48.020 631.957c-10.254 0-20.089-4.074-27.34-11.325s-11.325-17.086-11.325-27.341c0-10.255 4.074-20.089 11.325-27.34s17.086-11.325 27.34-11.325c10.255 0 20.089 4.073 27.341 11.325s11.325 17.086 11.325 27.34c0 10.255-4.074 20.089-11.325 27.341s-17.086 11.325-27.341 11.325zM975.984 631.957c-10.254 0-20.090-4.074-27.34-11.325-7.256-7.251-11.327-17.086-11.327-27.341s4.071-20.089 11.327-27.34c7.25-7.251 17.086-11.325 27.34-11.325s20.085 4.073 27.34 11.325c7.25 7.251 11.321 17.086 11.321 27.34s-4.071 20.089-11.321 27.341c-7.256 7.251-17.086 11.325-27.34 11.325zM184.481 303.906c-5.179 0.084-10.321-0.881-15.121-2.824-4.8-1.949-9.16-4.837-12.821-8.502-7.25-7.25-11.322-17.086-11.322-27.334 0-10.254 4.073-20.090 11.322-27.34 3.591-3.602 7.858-6.455 12.556-8.41 4.697-1.949 9.733-2.952 14.819-2.952s10.122 1.004 14.82 2.952c4.697 1.955 8.964 4.808 12.556 8.41 7.249 7.25 11.322 17.086 11.322 27.34 0 10.248-4.073 20.085-11.322 27.334-7.12 7.122-16.739 11.188-26.809 11.327zM840.577 303.834c-5.162 0.084-10.283-0.876-15.068-2.807s-9.14-4.802-12.794-8.444c-3.602-3.59-6.461-7.859-8.41-12.556s-2.952-9.732-2.952-14.818c0-5.086 1.004-10.121 2.952-14.818s4.808-8.966 8.41-12.556c7.25-7.25 17.080-11.321 27.334-11.321s20.085 4.071 27.34 11.321c3.602 3.59 6.455 7.859 8.404 12.556s2.952 9.732 2.952 14.818c0 5.086-1.004 10.121-2.952 14.818s-4.802 8.966-8.404 12.556c-7.134 7.099-16.75 11.13-26.812 11.251zM396.005 90.646v-38.661c0-42.727 34.605-77.334 77.331-77.334 0-10.254 4.073-20.085 11.325-27.34 7.251-7.25 17.086-11.321 27.34-11.321s20.089 4.071 27.341 11.321c7.251 7.255 11.325 17.086 11.325 27.34 42.725 0 77.332 34.607 77.332 77.334v38.661z" />
<glyph unicode="&#xe939;" glyph-name="credit-card" d="M78.77 841.846c-43.52 0-78.77-35.249-78.77-78.769v-39.385h1024v39.385c0 43.52-35.249 78.769-78.769 78.769zM0 605.538v-472.615c0-43.52 35.249-78.769 78.77-78.769h866.461c43.52 0 78.769 35.249 78.769 78.769v472.615zM118.154 526.769h315.076v-39.385h-315.076z" />
<glyph unicode="&#xe93a;" glyph-name="info" d="M512 960c-282.752 0-512-229.248-512-512s229.248-512 512-512c282.752 0 512 229.248 512 512s-229.248 512-512 512zM554.667 192h-85.334v298.667h85.334zM512 597.333c-35.328 0-64 28.672-64 64s28.672 64 64 64c35.329 0 64.001-28.672 64.001-64s-28.672-64-64.001-64z" />
</font>
</defs>
</svg>
